The.Basement.(2018).WEBRip.1080p.AC3.x264-EVO

Encodes in the resolutions 720p, 810p and 1080p, and in irregular HD resolutions, from non-retail (WEB or HDTV) sources, with one or more English audio tracks only. This section does not include animated or TV/documentary films, it does however include black & white movies.
Post Reply
bjorn j
Donator
Donator
Posts: 2708
Joined: Wed Jan 07, 2009 1:49 pm
Has thanked: 34 times
Been thanked: 6057 times

The.Basement.(2018).WEBRip.1080p.AC3.x264-EVO

Post by bjorn j » Fri Sep 14, 2018 2:00 pm

Image

http://www.IMDb.com/title/tt6118340/
Genre: Horror

Craig is abducted and wakes up in a basement. His captor, Bill, is a twisted serial killer who wishes to reenact his own capture, with Craig playing the part of Bill and Bill playing everyone else. As Bill tortures Craig, he cycles through a number of personas, all while Craig tries desperately to find a way into Bill's pathology in order to save himself.

Code: Select all

Format                                   : Matroska
File size                                : 3.05 GiB
Duration                                 : 1 h 28 min
Overall bit rate                         : 4 921 kb/s

Video
ID                                       : 2
Format                                   : AVC
Format/Info                              : Advanced Video Codec
Format profile                           : [email protected]
Format settings                          : CABAC / 5 Ref Frames
Format settings, CABAC                   : Yes
Format settings, RefFrames               : 5 frames
Codec ID                                 : V_MPEG4/ISO/AVC
Duration                                 : 1 h 28 min
Bit rate                                 : 4 535 kb/s
Width                                    : 1 920 pixels
Height                                   : 792 pixels
Display aspect ratio                     : 2.40:1
Frame rate mode                          : Constant
Frame rate                               : 23.976 FPS
Color space                              : YUV
Chroma subsampling                       : 4:2:0
Bit depth                                : 8 bits
Scan type                                : Progressive
Bits/(Pixel*Frame)                       : 0.124
Stream size                              : 2.81 GiB (92%)
Language                                 : English
Default                                  : Yes
Forced                                   : No
Color range                              : Limited
Color primaries                          : BT.709
Transfer characteristics                 : BT.709
Matrix coefficients                      : BT.709

Audio
ID                                       : 1
Format                                   : AC-3
Format/Info                              : Audio Coding 3
Commercial name                          : Dolby Digital
Codec ID                                 : A_AC3
Duration                                 : 1 h 28 min
Bit rate mode                            : Constant
Bit rate                                 : 384 kb/s
Channel(s)                               : 6 channels
Channel layout                           : L R C LFE Ls Rs
Sampling rate                            : 48.0 kHz
Frame rate                               : 31.250 FPS (1536 SPF)
Bit depth                                : 16 bits
Compression mode                         : Lossy
Delay relative to video                  : -42 ms
Stream size                              : 243 MiB (8%)
Language                                 : English
Service kind                             : Complete Main
Default                                  : Yes
Forced                                   : No

Menu
00:00:00.000                             : en:1
00:12:25.000                             : en:2
00:21:05.000                             : en:3
00:32:13.000                             : en:4
00:47:19.000                             : en:5
01:00:40.000                             : en:6
01:10:21.000                             : en:7
01:25:44.000                             : en:8
Image

The.Basement.2018.1080p.WEB-DL.H264.AC3-EVO.mkv  [3.05 Gb]

Post Reply

Return to “Non-Retail HD (720p, 810p, 1080p)”